Всегда рабочее зеркало без VPN и Proxy просто перед .vidak.icu напиши любое слово или цифру, Пример http://n826.vidak.icu

MVO

MVO

1 сезон

1

1 сезон

iTunes

1 сезон

13

1 сезон

Deluxe

pack

Рекомендуем

Repack

30

ВАЖНО

RePack

MK11

RePack

jed

RePack

fifa19

RePack

RDR2

RePack

NEED FOR SPEED™ PAYBACK

Кинопоиск HD

6 сезон

 Острые козырьки 6 сезон

Все сериалы

все сериалы на PB.wtf

RePack

FAR CRY 5
  
Magnet ссылка

На поверхности / Surface / Сезон: 1 / Серии: 1-4 из 8 (Сэм Миллер, Кевин Родни Салливан) [2022, Триллер, драма, детектив, WEB-DL 1080p] DUB [SDI Media] 0do.vidak.icu

На поверхности через торрент 0do.vidak.icu

Раздают: 1 [ 658 KB/s ] Качают: 2 [ 0 KB/s ]
Размер: 14.25 GB | Добавлен: 2 д. 13 ч. назад | Торрент скачан:1 раз
Смотреть онлайн На поверхности | Скачать    Ребята, помогите собрать деньги на оплату серверов!!!

30-07-2022 02:57 На поверхности Скачать торрент  

На поверхности
Surface

Год выпуска: 2022
Страна: США
Студия: Apple, Hello Sunshine
Жанр: Триллер, драма, детектив
Продолжительность: ~ 00:50:00
Перевод: Дублированный | SDI Media
Субтитры: Русские, английские

Режиссер: Сэм Миллер, Кевин Родни Салливан

rating

В ролях: Кристин Парк, Гугу Эмбата-Ро, Маркиян Тарасюк, Андрес Джозеф, Эри Грейнор, Иэн Трейси, Виктория Морган, Патрик Спарлинг, Милли Брэйди, Оливер Джексон-Коэн и др.

Описание: В результате тяжелой травмы головы Софи теряет память. Пытаясь восстановить свою жизнь с помощью мужа и друзей, Софи начинает сомневаться в идеальности своей безупречной на первый взгляд жизни.

Качество: WEB-DL 1080p
Формат: MKV

Видео: 1920x960 (2,000), 23,976 fps, AVC (х264), [email protected], ~10,1 Mbps avg, 0.229 bit/pixel
Аудио RUS: 44,1 kHz, AAC, 2/0 (L,R), ~192 kbps avg
Аудио ENG: 48 kHz, E-AC3, 3/2 (L,C,R,l,r) + LFE ch, ~768 kbps avg

Общее
Уникальный идентификатор : 70532649571835319568308479379951900940 (0x3510181C9F3AC8E895AF217A40D0D90C)
Полное имя : Surface.S01E01.1080p.Kerob.mkv
Формат : Matroska
Версия формата : Version 4
Размер файла : 3,76 Гбайт
Продолжительность : 48 м. 40 с.
Общий поток : 11,1 Мбит/сек
Дата кодирования : UTC 2022-07-29 09:31:38
Программа кодирования : mkvmerge v68.0.0 ('The Curtain') 64-bit
Библиотека кодирования : libebml v1.4.2 + libmatroska v1.6.4

Видео
Идентификатор : 1
Формат : AVC
Формат/Информация : Advanced Video Codec
Профиль формата : [email protected]
Настройки формата : CABAC / 4 Ref Frames
Параметр CABAC формата : Да
Параметр RefFrames формата : 4 кадра
Идентификатор кодека : V_MPEG4/ISO/AVC
Продолжительность : 48 м. 40 с.
Битрейт : 10,1 Мбит/сек
Ширина : 1 920 пикселей
Высота : 960 пикселей
Соотношение сторон : 2,000
Режим частоты кадров : Постоянный
Частота кадров : 23,976 (24000/1001) кадра/сек
Цветовое пространство : YUV
Субдискретизация насыщенности : 4:2:0
Битовая глубина : 8 бит
Тип развёртки : Прогрессивная
Бит/(Пиксели*Кадры) : 0.229
Размер потока : 3,43 Гбайт (91%)
Язык : English
Default : Да
Forced : Нет
Цветовой диапазон : Limited
Основные цвета : BT.709
Характеристики трансфера : BT.709
Коэффициенты матрицы : BT.709

Аудио #1
Идентификатор : 2
Формат : AAC LC
Формат/Информация : Advanced Audio Codec Low Complexity
Идентификатор кодека : A_AAC-2
Продолжительность : 48 м. 40 с.
Битрейт : 192 Кбит/сек
Каналы : 2 канала
Channel layout : L R
Частота : 44,1 КГц
Частота кадров : 43,066 кадра/сек (1024 SPF)
Метод сжатия : С потерями
Размер потока : 67,8 Мбайт (2%)
Default : Да
Forced : Нет

Аудио #2
Идентификатор : 3
Формат : E-AC-3 JOC
Формат/Информация : Enhanced AC-3 with Joint Object Coding
Коммерческое название : Dolby Digital Plus with Dolby Atmos
Идентификатор кодека : A_EAC3
Продолжительность : 48 м. 40 с.
Вид битрейта : Постоянный
Битрейт : 768 Кбит/сек
Каналы : 6 каналов
Channel layout : L R C LFE Ls Rs
Частота : 48,0 КГц
Частота кадров : 31,250 кадров/сек (1536 SPF)
Метод сжатия : С потерями
Размер потока : 267 Мбайт (7%)
Язык : English
Default : Да
Forced : Нет
Complexity index : 16
Number of dynamic objects : 15
Bed channel count : 1 канал
Bed channel configuration : LFE

Текст #1
Идентификатор : 4
Формат : UTF-8
Идентификатор кодека : S_TEXT/UTF8
Идентификатор кодека/Информация : UTF-8 Plain Text
Продолжительность : 45 м. 51 с.
Битрейт : 40 бит/сек
Частота кадров : 0,150 кадр/сек
Count of elements : 412
Размер потока : 13,7 Кбайт (0%)
Заголовок : English
Язык : English
Default : Нет
Forced : Нет

Текст #2
Идентификатор : 5
Формат : UTF-8
Идентификатор кодека : S_TEXT/UTF8
Идентификатор кодека/Информация : UTF-8 Plain Text
Продолжительность : 47 м. 13 с.
Битрейт : 65 бит/сек
Частота кадров : 0,157 кадр/сек
Count of elements : 444
Размер потока : 22,8 Кбайт (0%)
Заголовок : Russian
Язык : Russian
Default : Нет
Forced : Нет

Когда раздача ведётся путём добавления новых серий, при каждом добавлении создётся новый торрент. Чтобы начать докачку новой серии, пользователям необходимо сделать следующее:
(1) остановить скачивание,
(2) удалить старый торрент у себя из клиента (старые серии удалять не надо),
(3) скачать новый торрент и запустить его у себя в клиенте вместо старого, при этом указать клиенту путь в старую папку, куда и должно происходить скачивание новых серий.
Ваш клиент при этом должен произвести хеширование (проверку) старой папки (если не производит сам - помогите ему сделать это), и будет докачивать только те серии, которых у вас ещё нет. Старые серии при этом не удаляются, а продолжают раздаваться!
Eсли вы уже удалили старые серии, то предотвратить повторную закачку старых серий можно, отжав галочку в соответсвующих местах при запуске нового торрента. По возможности, желательно не удалять старые серии как можно дольше, чтобы релизёр не столько продолжал раздавать старые серии, а смог сконцентрироваться на новых.

0do.vidak.icu



Скачать На поверхности через торрент https://i5.imageban.ru/out/2022/07/30/2ba5ea359b6bc7b6b704ebb3cf21e597.jpg Скачать, смотреть онлайн На поверхности бесплантно в хорошем качестве Описание: В результате тяжелой травмы головы Софи теряет память. Пытаясь восстановить свою жизнь с помощью мужа и друзей, Софи начинает ... 10 10 3
Торрент: Зарегистрирован [2022-08-05 23:36] · скачан: 1 раз
Статус: √ проверено
Размер: 14.25 GB
Как cкачать? Как скачать На поверхности через торрент | UTorrent

28-11-2019 20:33  

Отключить вcю реклaмy на сайте

30-07-2022 14:00 На поверхности Скачать торрент  

я даже трейлер не досмотрел до конца,фигня короче0do.vidak.icu



    Дорогой пользователь! Огромная просьба, поблагодарите релизера, оцените раздачу и оставьте свои комментарий, если Вы скачали На поверхности через торрент бесплатно!
    Комментировать посты могут только пользователи прошедшие не сложную регистрацию
    Показать сообщения:    

    На поверхности через торрент
    Скачать бесплатно На поверхности
    На поверхности скачать торрент
    На поверхности смотреть онлайн
    Cкачать фильм На поверхности бесплатно
    На поверхности скачать торрент в хорошем качестве
    На поверхности смотреть онлайн бесплатно в хорошем качестве


    Вы не можете начинать темы
    Вы не можете отвечать на сообщения
    Вы не можете редактировать свои сообщения
    Вы не можете удалять свои сообщения
    Вы не можете голосовать в опросах
    Вы не можете прикреплять файлы к сообщениям
    Вы можете скачивать файлы