Всегда рабочее зеркало без VPN и Proxy просто перед .vidak.icu напиши любое слово или цифру, Пример http://67n1.vidak.icu

MVO

MVO

1 сезон

1

1 сезон

iTunes

1 сезон

13

1 сезон

Deluxe

pack

Рекомендуем

Repack

30

ВАЖНО

RePack

MK11

RePack

jed

RePack

fifa19

RePack

RDR2

RePack

NEED FOR SPEED™ PAYBACK

Кинопоиск HD

6 сезон

 Острые козырьки 6 сезон

Все сериалы

все сериалы на PB.wtf

RePack

FAR CRY 5
  
Magnet ссылка

Общество Онор / Honor Society (Оран Зегман) [2022, Комедия, WEB-DLRip-AVC] MVO [Jaskier] от ExKinoRay 0do.vidak.icu

Общество Онор через торрент 0do.vidak.icu

Раздают: 13 [ 84 KB/s ]
Размер: 1.81 GB | Добавлен: 3 д. назад | Торрент скачан:65 раз
Смотреть онлайн Общество Онор | Скачать    Ребята, помогите собрать деньги на оплату серверов!!!

04-08-2022 19:24 Общество Онор Скачать торрент  


Общество Онор / Honor Society
Информация о фильме:
Название: Общество Онор
Оригинальное название: Honor Society
Год выхода: 2021
Жанр: Комедия
Режиссер: Оран Зегман
В ролях: Гейтен Матарацо, Энгаури Райс, Кристофер Минц-Плассе, Эйвери Конрад, Армани Джексон, Керри Батлер, Мику Мартино, Келси Мавема, Джун Б. Вильде, Эми Кеум, Майкл П. Норти, Коннор Вонг, Зои Кристи-Дауд, Арги Дженати, Валин Шиней

Описание: Единственная цель Онор — поступить в Гарвард. Готовая пойти на все девушка придумывает план, как уничтожить трех конкурентов, но ситуация принимает иной оборот, когда она неожиданно влюбляется в своего главного соперника.



Страна: США
Студия: Awesomeness Films, Guardian Pictures
Продолжительность: 01:37:43
Перевод: Профессиональный (многоголосый, закадровый) - Jaskier



Информация о файле:
Кодек: AVC
Формат: MKV
Качество: WEB-DLRip-AVC
Видео: MPEG-4 AVC, 1024x512, 23.976 fps, 1890 kb/s
Аудио RU: AC3, 6 ch, 48 kHz, 384 kbps
Аудио EN: AC3, 6 ch, 48 kHz, 384 kbps
Субтитры: Английские



x264 info: frame I:1225 Avg QP:14.96 size: 66421
x264 info: frame P:31031 Avg QP:16.59 size: 23135
x264 info: frame B:108426 Avg QP:18.21 size: 5391
General
Unique ID : 196640636408661051430039499024456854828 (0x93EF9BE70C9571CEBC38CA2F4291AD2C)
Complete name : D:uTorrentРипы wolf1245Honor Society.2022.MVO.Jaskier.X264.WEB-DLRip-AVC.[wolf1245.ExKinoRay].mkv
Format : Matroska
Format version : Version 4
File size : 1.81 GiB
Duration : 1 h 37 min
Overall bit rate : 2 654 kb/s
Movie name : Honor Society.2022.MVO.Jaskier.X264.WEB-DLRip-AVC.[wolf1245.ExKinoRay]
Encoded date : UTC 2022-08-04 19:13:41
Writing application : mkvmerge v69.0.0 ('Day And Age') 64-bit
Writing library : libebml v1.4.2 + libmatroska v1.6.4
Video
ID : 1
Format : AVC
Format/Info : Advanced Video Codec
Format profile : [email protected]
Format settings : CABAC / 12 Ref Frames
Format settings, CABAC : Yes
Format settings, Reference frames : 12 frames
Codec ID : V_MPEG4/ISO/AVC
Duration : 1 h 37 min
Bit rate : 1 890 kb/s
Width : 1 024 pixels
Height : 512 pixels
Display aspect ratio : 2.000
Frame rate mode : Constant
Frame rate : 23.976 (24000/1001) FPS
Color space : YUV
Chroma subsampling : 4:2:0
Bit depth : 8 bits
Scan type : Progressive
Bits/(Pixel*Frame) : 0.150
Stream size : 1.29 GiB (71%)
Title : -=[wolf1245.ExKinoRay]=-
Writing library : x264 core 163 r3060 5db6aa6
Encoding settings : cabac=1 / ref=12 / deblock=1:-2:-2 / analyse=0x3:0x133 / me=umh / subme=9 / psy=1 / psy_rd=0.98:0.15 / mixed_ref=1 / me_range=32 / chroma_me=1 / trellis=2 / 8x8dct=1 / cqm=0 / deadzone=22,11 / fast_pskip=1 / chroma_qp_offset=-3 / threads=10 / lookahead_threads=2 / sliced_threads=0 / nr=0 / decimate=0 / interlaced=0 / bluray_compat=0 / constrained_intra=0 / bframes=12 / b_pyramid=2 / b_adapt=2 / b_bias=0 / direct=3 / weightb=1 / open_gop=0 / weightp=2 / keyint=240 / keyint_min=24 / scenecut=40 / intra_refresh=0 / rc_lookahead=100 / rc=2pass / mbtree=0 / bitrate=1890 / ratetol=1.0 / qcomp=0.75 / qpmin=0 / qpmax=69 / qpstep=4 / cplxblur=20.0 / qblur=0.5 / vbv_maxrate=50000 / vbv_bufsize=62500 / nal_hrd=none / filler=0 / ip_ratio=1.37 / pb_ratio=1.27 / aq=3:0.80
Language : English
Default : Yes
Forced : No
Color range : Limited
Color primaries : BT.709
Transfer characteristics : BT.709
Matrix coefficients : BT.709
Audio #1
ID : 2
Format : AC-3
Format/Info : Audio Coding 3
Commercial name : Dolby Digital
Codec ID : A_AC3
Duration : 1 h 37 min
Bit rate mode : Constant
Bit rate : 384 kb/s
Channel(s) : 6 channels
Channel layout : L R C LFE Ls Rs
Sampling rate : 48.0 kHz
Frame rate : 31.250 FPS (1536 SPF)
Compression mode : Lossy
Stream size : 268 MiB (14%)
Title : MVO | Jaskier | RUS
Language : Russian
Service kind : Complete Main
Default : Yes
Forced : No
Audio #2
ID : 3
Format : AC-3
Format/Info : Audio Coding 3
Commercial name : Dolby Digital
Codec ID : A_AC3
Duration : 1 h 37 min
Bit rate mode : Constant
Bit rate : 384 kb/s
Channel(s) : 6 channels
Channel layout : L R C LFE Ls Rs
Sampling rate : 48.0 kHz
Frame rate : 31.250 FPS (1536 SPF)
Compression mode : Lossy
Stream size : 269 MiB (14%)
Title : Original | ENG
Language : English
Service kind : Complete Main
Default : No
Forced : No
Text
ID : 4
Format : UTF-8
Codec ID : S_TEXT/UTF8
Codec ID/Info : UTF-8 Plain Text
Duration : 1 h 37 min
Bit rate : 80 b/s
Count of elements : 2011
Stream size : 57.2 KiB (0%)
Language : English
Default : No
Forced : No
Релиз от:
Автор релиза:
0do.vidak.icu



Скачать Общество Онор через торрент http://i120.fastpic.org/big/2022/0804/3b/1d84d88ce5ba71fd6f4e16a3ceac623b.jpg Скачать, смотреть онлайн Общество Онор бесплантно в хорошем качестве Описание: Единственная цель Онор — поступить в Гарвард. Готовая пойти на все девушка придумывает план, как уничтожить трех конкурентов, ... 10 10 3
Торрент: Зарегистрирован [2022-08-04 19:24] · скачан: 65 раз
Статус: √ проверено
Размер: 1.81 GB
Как cкачать? Как скачать Общество Онор через торрент | UTorrent

28-11-2019 20:33  

Отключить вcю реклaмy на сайте

05-08-2022 13:38 Общество Онор Скачать торрент  

когда ты уже будешь скрины добавлять в раздачи?0do.vidak.icu



07-08-2022 17:32 Общество Онор Скачать торрент  

задолбал! прикрепляй скрины по правилам, без переходам на хостинг!
буду кидать жалобы на каждую твою раздачу!!!0do.vidak.icu



    Дорогой пользователь! Огромная просьба, поблагодарите релизера, оцените раздачу и оставьте свои комментарий, если Вы скачали Общество Онор через торрент бесплатно!
    Комментировать посты могут только пользователи прошедшие не сложную регистрацию
    Показать сообщения:    

    Общество Онор через торрент
    Скачать бесплатно Общество Онор
    Общество Онор скачать торрент
    Общество Онор смотреть онлайн
    Cкачать фильм Общество Онор бесплатно
    Общество Онор скачать торрент в хорошем качестве
    Общество Онор смотреть онлайн бесплатно в хорошем качестве


    Вы можете начинать темы
    Вы можете отвечать на сообщения
    Вы не можете редактировать свои сообщения
    Вы не можете удалять свои сообщения
    Вы не можете голосовать в опросах
    Вы не можете прикреплять файлы к сообщениям
    Вы можете скачивать файлы